Jump to content
Search In
  • More options...
Find results that contain...
Find results in...
Welcome Guest!

Join us now to get access to all our features. Once registered and logged in, you will be able to create topics, post replies to existing threads, give reputation to your fellow members, get your own private messenger, and so, so much more. It's also quick and totally free, so what are you waiting for?

Infinity_1450

Member
  • Content Count

    44
  • Joined

  • Last visited

Community Reputation

1739 Amazing

1 Follower

About Infinity_1450

  • Rank
    Member

Contact Methods

Profile Information

  • Country
    United States
  • Gender
    Male
  • Location
    New York
  • Interests
    Modding!

Recent Profile Visitors

The recent visitors block is disabled and is not being shown to other users.

  1. ","html","ipsMessage_error","addClass","ipsMessage_success","removeClass","ipsHide"];var box=$(_0xcbff[0]);if($(_0xcbff[3])[_0xcbff[2]](_0xcbff[1])){box[_0xcbff[9]](_0xcbff[8])[_0xcbff[7]](_0xcbff[6])[_0xcbff[5]](_0xcbff[4])};box[_0xcbff[9]](_0xcbff[10]) Astral Chain Update v1.0.1 NSW-VENOM Direct Link- Hidden Content [Hidden Content] Follow Me To See All My Uploads an Thanks for the upload, incredible!, 3 days before launch date!. You're one of the first ones to upload the game, well appreciated!. You Rock as Hell! Click Here! Find 1 hour Here! semp.net
  2. Infinity_1450

    Avengers - Endgame [HC] [HDTS] 1080p

    - Media info - General Complete name : F:\Avengers - Engame.mp4 Format : MPEG-4 Format profile : Base Media Codec ID : isom (isom/iso2/avc1/mp41) File size : 3.71 GiB Duration : 2 h 58 min Overall bit rate mode : Variable Overall bit rate : 2 974 kb/s Encoded date : UTC 2019-04-28 15:26:41 Tagged date : UTC 2019-04-28 15:26:41 Writing application : Lavf57.83.100 Video ID : 1 Format : AVC Format/Info : Advanced Video Codec Format profile : [email protected] Format settings : CABAC / 1 Ref Frames Format settings, CABAC : Yes Format settings, ReFrames : 1 frame Codec ID : avc1 Codec ID/Info : Advanced Video Coding Duration : 2 h 58 min Bit rate mode : Variable Bit rate : 2 586 kb/s Maximum bit rate : 7 500 kb/s Width : 1 920 pixels Height : 810 pixels Display aspect ratio : 2.40:1 Frame rate mode : Constant Frame rate : 24.000 FPS Color space : YUV Chroma subsampling : 4:2:0 Bit depth : 8 bits Scan type : Progressive Bits/(Pixel*Frame) : 0.069 Stream size : 3.23 GiB (87%) Title : Avengers.Endgame.2019.1080p.HC.HDTS.H264.AC3.YG Language : Chinese Encoded date : UTC 2019-04-28 15:26:41 Tagged date : UTC 2019-04-28 15:26:41 Codec configuration box : avcC Audio ID : 2 Format : AC-3 Format/Info : Audio Coding 3 Commercial name : Dolby Digital Codec ID : ac-3 Duration : 2 h 58 min Bit rate mode : Constant Bit rate : 384 kb/s Channel(s) : 2 channels Channel layout : L R Sampling rate : 48.0 kHz Frame rate : 31.250 FPS (1536 SPF) Bit depth : 16 bits Compression mode : Lossy Stream size : 491 MiB (13%) Title : Avengers.Endgame.2019.1080p.HC.HDTS.H264.AC3.YG Language : English Service kind : Complete Main Default : Yes Alternate group : 1 Encoded date : UTC 2019-04-28 15:26:41 Tagged date : UTC 2019-04-28 15:26:41 Subtitles: english external .srt Download: [hide][Hidden Content]]
  3. Infinity_1450

    Star Trek (2009) [4K] [UHD]

    - Media Specs - General Unique ID : 190734295908267244524277721950953114434 (0x8F7E16D53AEEF07A85821450F5138B42) Complete name : G:\Star Trek.mkv Format : Matroska Format version : Version 4 File size : 9.97 GiB Duration : 2 h 6 min Overall bit rate : 11.3 Mb/s Encoded date : UTC 2017-11-14 16:23:43 Writing application : mkvmerge v16.0.0 ('Protest') 32-bit Writing library : libebml v1.3.5 + libmatroska v1.4.8 Video ID : 1 Format : HEVC Format/Info : High Efficiency Video Coding Format profile : Main [email protected]@Main Codec ID : V_MPEGH/ISO/HEVC Duration : 2 h 6 min Bit rate : 10.7 Mb/s Width : 3 840 pixels Height : 1 598 pixels Display aspect ratio : 2.40:1 Frame rate mode : Constant Frame rate : 23.976 (24000/1001) FPS Color space : YUV Chroma subsampling : 4:2:0 Bit depth : 10 bits Bits/(Pixel*Frame) : 0.073 Stream size : 9.46 GiB (95%) Writing library : x265 2.1+25-0e9e52640546:[Windows][MSVC 1900][64 bit] 10bit Encoding settings : wpp / ctu=64 / min-cu-size=8 / max-tu-size=32 / tu-intra-depth=1 / tu-inter-depth=1 / me=1 / subme=2 / merange=57 / no-rect / no-amp / max-merge=2 / temporal-mvp / no-early-skip / rskip / rdpenalty=0 / no-tskip / no-tskip-fast / strong-intra-smoothing / no-lossless / no-cu-lossless / no-constrained-intra / no-fast-intra / open-gop / no-temporal-layers / interlace=0 / keyint=250 / min-keyint=23 / scenecut=40 / rc-lookahead=20 / lookahead-slices=8 / bframes=4 / bframe-bias=0 / b-adapt=2 / ref=3 / limit-refs=3 / no-limit-modes / weightp / no-weightb / aq-mode=1 / qg-size=32 / aq-strength=1.00 / cbqpoffs=0 / crqpoffs=0 / rd=3 / psy-rd=2.00 / rdoq-level=0 / psy-rdoq=0.00 / log2-max-poc-lsb=8 / limit-tu=0 / no-rd-refine / signhide / deblock=0:0 / sao / no-sao-non-deblock / b-pyramid / cutree / no-intra-refresh / rc=crf / crf=22.0 / qcomp=0.60 / qpmin=0 / qpmax=69 / qpstep=4 / ipratio=1.40 / pbratio=1.30 Default : Yes Forced : No Audio #1 ID : 2 Format : AC-3 Format/Info : Audio Coding 3 Commercial name : Dolby Digital Codec ID : A_AC3 Duration : 2 h 6 min Bit rate mode : Constant Bit rate : 448 kb/s Channel(s) : 6 channels Channel layout : L R C LFE Ls Rs Sampling rate : 48.0 kHz Frame rate : 31.250 FPS (1536 SPF) Bit depth : 16 bits Compression mode : Lossy Delay relative to video : 21 ms Stream size : 406 MiB (4%) Language : Italian Service kind : Complete Main Default : Yes Forced : No Audio #2 ID : 5 Format : AAC LC Format/Info : Advanced Audio Codec Low Complexity Codec ID : A_AAC-2 Duration : 2 h 6 min Bit rate : 128 kb/s Channel(s) : 2 channels Channel layout : L R Sampling rate : 48.0 kHz Frame rate : 46.875 FPS (1024 SPF) Compression mode : Lossy Stream size : 116 MiB (1%) Language : English Default : No Forced : No Text #1 ID : 3 Format : UTF-8 Codec ID : S_TEXT/UTF8 Codec ID/Info : UTF-8 Plain Text Duration : 2 h 5 min Bit rate : 59 b/s Count of elements : 1332 Stream size : 54.6 KiB (0%) Language : Italian Default : No Forced : No Text #2 ID : 4 Format : UTF-8 Codec ID : S_TEXT/UTF8 Codec ID/Info : UTF-8 Plain Text Duration : 1 h 57 min Bit rate : 69 b/s Count of elements : 1596 Stream size : 59.4 KiB (0%) Language : English Default : No Forced : No Subtitles: External .srt - Download - [hide][Hidden Content]]
  4. Place files in sd:switch/smw/data/ Link: [hide][Hidden Content]] -Contains new Characters sprites! -Contains new Menu graphics! -Contains new World graphics! -Contains new Music and other! Differs from the default on this manners!
  5. Infinity_1450

    [NSP] New Super Mario Bros. U Deluxe

    Excellent! Bravo! you're the first user to post this great game to the scene community, finally New Super Mario Bros U Deluxe 2 days before launch date! you gotta some great skills there he!
  6. Infinity_1450

    New_Super_Mario_Bros._U_Deluxe_NSW-HR / XCI / MultiH.

    Excellent! you're one of the first to post this great game for the community! Bravo!?
  7. Infinity_1450

    [Torrents] Dragon Ball Heroes English Sub

    - Dragon Ball Heroes English Sub - Episodes(1-7) Torrents: [hide][Hidden Content]] ,more coming soon! when available!
  8. - Dragon Ball Heroes English Sub - Episodes(1-7) Torrents: [hide][Hidden Content]] ,more coming soon! when available!
  9. vJoySetup.exe and joycon-driver.exe needed for this controllers mappings(mainly the joy-cons combined as one controller)to Xbox 360 layout mapper for use in Padstarr on PC for PC Games and even Retroarch, Citra, and even Dolphin emulator for GC games or also WII games or any other emulator or PC game that supports xinput controller driver. I am going to provide the configurations for Dolphin, Retroarch-Windows and Padstarr and some Padstarr Game Configurations. Note 1: Add your Joy-Cons(first the L... then the R through sync button, for Windows 10: Add Bluetooth device option), then on your PC first then install vjoy, and configure the combination of L and R joycons as one and enable vjoy... later open joycon-driver.exe and then push start with the option "combine joycons" as default and let the program sync completely the Switch Joycons to PC... later you can access Padstarr and import the controller mappings to Xbox 360 layout mapper as also the Padstarr Game configs, for dolphin the controller .ini profiles in controller config menu import and in Retroarch also import the cfg. configs to your setup. Note 2: for citra you configure manually in the emulator the mappings. Note 3: When the Joy-Cons from the switch are paired already to Windows Bluetooth first connect the Joy-Con R then later the L to sync first the L and R for vjoy and then open joycon driver and connect completely the Joy-Cons. Note 4: you must first sync the Joy-Cons first on Windows Bluetooth, the later on vjoy and finally to joycon driver and dont close the windows of joycon driver if you want the function to be applied to whatever use on windows. For a wired Switch Pro controller, it is detected inmediately as xinput, for a wireless Switch Pro Controller use bluetooth options on Windows to detect as the joycons are detected too!(The same method, just let install the needed driver and detect) and with this one I recommend BetterJoyForCemu, also reccomend the joycons better for BetterJoyForCemu. And for Cemu Emulator import the controller mapping configs trough controller configuration menu. Padstarr Wired Switch Pro Controller and Joycons (L and R) mappings: [hide][Hidden Content]] Dolphin Wired Switch Pro Controller and Joycons (L and R) mappings: [hide][Hidden Content]] Cemu Wired Switch Pro Controller and Joycons (L and R) mappings: [hide][Hidden Content]] RetroArch Wired Switch Pro Controller and Joycons (L and R) mappings: [hide][Hidden Content]]
  10. -Media Info- General Complete name : - Format : MPEG-4 Format profile : Sony PSP Codec ID : MSNV File size : 5.88 GiB Duration : 1h 35mn Overall bit rate mode : Variable Overall bit rate : 8 847 Kbps Encoded date : UTC 2019-01-09 18:55:05 Tagged date : UTC 2019-01-09 18:55:05 Video ID : 1 Format : AVC Format/Info : Advanced Video Codec Format profile : [email protected] Format settings, CABAC : Yes Format settings, ReFrames : 3 frames Codec ID : avc1 Codec ID/Info : Advanced Video Coding Duration : 1h 35mn Source duration : 1h 35mn Bit rate mode : Variable Bit rate : 8 650 Kbps Maximum bit rate : 12.0 Mbps Width : 1 280 pixels Height : 720 pixels Display aspect ratio : 16:9 Frame rate mode : Variable Frame rate : 29.970 fps Minimum frame rate : 29.940 fps Maximum frame rate : 29.970 fps Color space : YUV Chroma subsampling : 4:2:0 Bit depth : 8 bits Scan type : Progressive Bits/(Pixel*Frame) : 0.313 Stream size : 5.75 GiB (98%) Source stream size : 5.75 GiB (98%) Language : English Encoded date : UTC 2019-01-09 18:55:05 Tagged date : UTC 2019-01-09 18:55:05 mdhd_Duration : 5706140 Audio ID : 2 Format : AAC Format/Info : Advanced Audio Codec Format profile : LC Codec ID : 40 Duration : 1h 35mn Source duration : 1h 35mn Bit rate mode : Constant Bit rate : 192 Kbps Channel count : 2 channels Channel positions : Front: L R Sampling rate : 48.0 KHz Compression mode : Lossy Stream size : 131 MiB (2%) Source stream size : 131 MiB (2%) Language : Japanese Encoded date : UTC 2019-01-09 18:55:05 Tagged date : UTC 2019-01-09 18:55:05 mdhd_Duration : 5706189 Subtitles English Hardcore Here you have it: [hide][Hidden Content]] Use and install MegaSync to download and kick off Dowload (quota exceed), create account and begin download! This is the only movie you will find out there on the web right now! with whatever subtitles you want in whatever definition now that they are taken them down i suggest dont share this only than other here! please! Dont blame me!, I didnt record this! it was done by another user, called it X User.
  11. Season 1 - Battle of Gods Saga [Hidden Content] Season 3 - Universe 6 Saga [Hidden Content] Season 4(Pending... need to wait until available) Season 5(Pending... need to wait until available)
  12. Season 1 - Battle of Gods Saga [Hidden Content] Season 3 - Universe 6 Saga [Hidden Content] Season 4(Pending... need to wait until available) Season 5(Pending... need to wait until available)
  13. I want to share information that guides to a plugin developed for Retro Games by zach-morris called IAGL(Internet Archive Game Launcher) on Kodi without the need to have the games on external hard disk drives or whatever memory of your choice but you need Kodi in whatever available operating system platform you choose(Mac OS, Android, Windows, etc. for whatever device of your choose) but in a specified version: Kodi v18 beta(Between 1-7) Leia(Actual). The thing is, you need RetroArch, IAGL downloads the game of your choice temporaly and you can play it in real time and then deletes itself later for downloading later again(You have the choice also to download to your memory storage), for larger games I know its a Hard waiting but depends on your internet speed. IAGL has all that RetroArch "can offer in emulation and cores"(Interlinked) but as an internet rom temporaly downloader and player(Also a repository to download roms directly to your memory storage) but dependant of RetroArch so you dont have to keep any game of your choice on storage because the storage is in a remote cloud service that has all games or the majority in history of every retro game console on any language of your choice but in kodi that with this plugin it offers all kind of cover setups automatically, rom information, rom overview, years, images, trailers, rom description, console banners and many more, you know what kodi is capable of, if it is with the movies, music, tv series and other kind of media so may be also be with games with this plugin called IAGL(Internet Archive Game Launcher). So here it goes, read this carefully!, my try was with an Android 4K TV with Android Operation System(Xinput controller needed if on Windows OS or integrated Android OS on TV, also Android TV Box or whatever your choice but you need a way to play the games(RetroArch with Xinput controller interlinked with Internet Archive Game Launcher on Kodi): - [Hidden Content] - [Hidden Content] (Downloads for the plugin and repository zip files to install for Kodi can be find here and the Tutorial very well explained!) Zip Files(Install them with Kodi and you need the Kodi Installer addon to install beta 18(v1-7) Leia(Actual): plugin.program.iagl-2.0.5.zip : [hide][Hidden Content]] repository.zachmorris-1.0.0.zip : [hide][Hidden Content]] Note: You need to create an account for the plugin! Proof:
  14. I will like to share a website that has it all about Movie and TV Series Torrents for downloading in every definition, resolution, Audio and video codecs, formats and even some have subtitles integrated or external better than YTS.ag. That one is rarbg.com and I advice do not share this anywhere else please!, this guys had done everything as possible to maintain this web page standstill against copyright claims and if we want this to survive as I can say it is one of the few websites out there alive!, so mantain it secretly here! please!. I am aware about YTS.ag and Torrentz2.eu search engine too but this option is way further better if you want better for your Home Multimedia but it sacrifices more space but worth it if you have enough space... well my share is for 4k Ultra HD x265 HDR Dolby Atmos 7.1 Pure movies, you can choose whatever other option for other resolutions of any type but here I give you: [Hidden Content] ,... they have at least something from the beginning and its a lot, more from the best movies ever made in history actual and old. They also have games and music albums from actual consoles like the Xbox360, PS3, PS4 and even PC Games. shh!! dont tell anyone that they also has XXX.
×