Jump to content
Search In
  • More options...
Find results that contain...
Find results in...
Welcome Guest!

Join us now to get access to all our features. Once registered and logged in, you will be able to create topics, post replies to existing threads, give reputation to your fellow members, get your own private messenger, and so, so much more. It's also quick and totally free, so what are you waiting for?

Search the Community

Showing results for tags 'english sub'.



More search options

  • Search By Tags

    Type tags separated by commas.
  • Search By Author

Content Type


Forums

  • DarkUmbra Community
    • Introductions, Farewells & Vacations
    • News & Announcements
    • DarkUmbra Cafe
    • Help & Support
    • Entertainment & Artwork
  • Newsstand
    • Nintendo News
    • Microsoft News
    • Sony News
    • Mobile News
    • Other News
    • Reviews
  • Guides and Tutorials
    • Nintendo Tutorials
    • Microsoft Tutorials
    • Sony Tutorials
    • Mobile Device Tutorials
    • Other Tutorials
  • Content Sharing
    • Nintendo
    • Microsoft
    • Sony
    • Mobile Devices
    • Torrents
    • Retro Games
    • Requests

Find results in...

Find results that contain...


Date Created

  • Start

    End


Last Updated

  • Start

    End


Filter by number of...

Joined

  • Start

    End


Group


AIM


MSN


ICQ


Yahoo


Jabber


Skype


Location


Interests


Nintendo Network ID


Playstation Network ID


Xbox Live Gamertag


Wii Console ID


Steam ID


Twitter Username


Referrer

Found 1 result

  1. -Media Info- General Complete name : - Format : MPEG-4 Format profile : Sony PSP Codec ID : MSNV File size : 5.88 GiB Duration : 1h 35mn Overall bit rate mode : Variable Overall bit rate : 8 847 Kbps Encoded date : UTC 2019-01-09 18:55:05 Tagged date : UTC 2019-01-09 18:55:05 Video ID : 1 Format : AVC Format/Info : Advanced Video Codec Format profile : [email protected] Format settings, CABAC : Yes Format settings, ReFrames : 3 frames Codec ID : avc1 Codec ID/Info : Advanced Video Coding Duration : 1h 35mn Source duration : 1h 35mn Bit rate mode : Variable Bit rate : 8 650 Kbps Maximum bit rate : 12.0 Mbps Width : 1 280 pixels Height : 720 pixels Display aspect ratio : 16:9 Frame rate mode : Variable Frame rate : 29.970 fps Minimum frame rate : 29.940 fps Maximum frame rate : 29.970 fps Color space : YUV Chroma subsampling : 4:2:0 Bit depth : 8 bits Scan type : Progressive Bits/(Pixel*Frame) : 0.313 Stream size : 5.75 GiB (98%) Source stream size : 5.75 GiB (98%) Language : English Encoded date : UTC 2019-01-09 18:55:05 Tagged date : UTC 2019-01-09 18:55:05 mdhd_Duration : 5706140 Audio ID : 2 Format : AAC Format/Info : Advanced Audio Codec Format profile : LC Codec ID : 40 Duration : 1h 35mn Source duration : 1h 35mn Bit rate mode : Constant Bit rate : 192 Kbps Channel count : 2 channels Channel positions : Front: L R Sampling rate : 48.0 KHz Compression mode : Lossy Stream size : 131 MiB (2%) Source stream size : 131 MiB (2%) Language : Japanese Encoded date : UTC 2019-01-09 18:55:05 Tagged date : UTC 2019-01-09 18:55:05 mdhd_Duration : 5706189 Subtitles English Hardcore Here you have it: [hide][Hidden Content]] Use and install MegaSync to download and kick off Dowload (quota exceed), create account and begin download! This is the only movie you will find out there on the web right now! with whatever subtitles you want in whatever definition now that they are taken them down i suggest dont share this only than other here! please! Dont blame me!, I didnt record this! it was done by another user, called it X User.
×